star El Barco T.1 [BDRip] [ESP] [1.2GB] [13/13] [ MultiHost ] 1 LinkEl Barco T.1 [BDRip] [ESP] [1.2GB] [13/13] [ MultiHost ] 1 Link

El Barco | Temporada 1 | Capitulos [13/13]

el barco El Barco T.1 [BDRip] [ESP] [1.2GB] [13/13] [ MultiHost ] 1 Link

· · · · · · · · · · · · · · · : : | Ficha Técnica | : : · · · · · · · · · · · · · · ·

Título: El Barco
Título Original: El Barco
Año: 2011
País: USA
Duración: 60 min.
Género: Thriller
Creador: Iván Escobar, Daniel Écija, Alex Pina
Productora: Emitida por la cadena Antena 3 TV; Globomedia

· · · · · · · · · · · · · · · : : | Reparto | : : · · · · · · · · · · · · · · ·

✭ Mario Casas | ✭ Blanca Suárez | ✭ Luis Callejo | ✭ Juanjo Artero | ✭ Neus Sanz | ✭ Iván Massagué | ✭ Juan Pablo Shuk | ✭ Irene Montalá | ✭ Patricia Arbues | ✭ Belén Rueda

· · · · · · · · · · · · · · · : : | Sinopsis | : : · · · · · · · · · · · · · · ·

Sinopsis: Una catástrofe mundial provoca un cataclismo que lleva a la desaparición de la tierra firme. Con el planeta inundado de agua, la tripulación y los jóvenes alumnos de un buque escuela parecen ser los únicos supervivientes… Aislados del resto de un mundo que ni siquiera saben si ya existe, los principales responsables de que la nave llegue a puerto son el capitán (Juanjo Artero) y la científica del buque (Irene Montalá). Además de los alumnos está Ulises (Mario Casas), un polizón rebelde y con madera de héroe, y Ainhoa (Blanca Suárez), la hija adolescente del capitán, que se ha embarcado junto a su hermana pequeña Valeria (Patricia Arbues), a raíz del reciente fallecimiento de su madre.

WebSite http://www.antena3.com/series/el-barco/
FilmAffinity http://www.filmaffinity.com/es/film498102.html
IMDB http://www.imdb.es/title/tt1788634/
YouTube http://www.youtube.com/v/HKRGwUSWLhc

Temporada: 1
Nº de Capitulos: 13
Rip: BDRip
Formato: 480p
Contenedor: AVI
Audio: Castellano
Tamaño: 1.2GB

Spoiler

General
Format : AVI
Format/Info : Audio Video Interleave
File size : 1.19 GiB
Duration : 1h 21mn
Overall bit rate : 2 101 Kbps

Video
ID : 0
Format : MPEG-4 Visual
Format profile : Advanced Simple@L5
Format settings, BVOP : No
Format settings, QPel : No
Format settings, GMC : No warppoints
Format settings, Matrix : Default (H.263)
Codec ID : XVID
Codec ID/Hint : XviD
Duration : 1h 21mn
Bit rate : 1 900 Kbps
Width : 704 pixels
Height : 400 pixels
Display aspect ratio : 16:9
Frame rate : 25.000 fps
Color space : YUV
Chroma subsampling : 4:2:0
Bit depth : 8 bits
Scan type : Progressive
Compression mode : Lossy
Bits/(Pixel*Frame) : 0.270
Stream size : 1.08 GiB (90%)
Writing library : XviD 1.2.1 (UTC 2008-12-04)

Audio
ID : 1
Format : MPEG Audio
Format version : Version 1
Format profile : Layer 3
Mode : Joint stereo
Mode extension : MS Stereo
Codec ID : 55
Codec ID/Hint : MP3
Duration : 1h 21mn
Bit rate mode : Constant
Bit rate : 192 Kbps
Channel(s) : 2 channels
Sampling rate : 48.0 KHz
Compression mode : Lossy
Stream size : 112 MiB (9%)
Alignment : Aligned on interleaves
Interleave, duration : 40 ms (1.00 video frame)
Interleave, preload duration : 504 ms

· · · · · · · · · · · · · · · : : | Servidores de Descarga | : : · · · · · · · · · · · · · · ·

· · : : | Links Temporada 1 | : : · ·

Uploaded http://pastebin.com/gHM0LsFz

· · · · · · · · · · · · · · · : : | Otras Temporadas | : : · · · · · · · · · · · · · · ·

☆ Temporada 2 en SD Aquí
☆ Temporada 3 en SD Aquí

★ Temporada 1 en HD Aquí
★ Temporada 2 en HD Aquí

Tagged with:  

Deja tu comentario

Free WordPress Themes

Looking for something?

Use the form below to search the site:

Still not finding what you're looking for? Drop a comment on a post or contact us so we can take care of it!

Visit our friends!

A few highly recommended friends...