icon1 Death Race: Inferno [2013][DVDRip][Latino][1 Link][LB]Death Race: Inferno [2013][DVDRip][Latino][1 Link][LB]

l
3pyNF Death Race: Inferno [2013][DVDRip][Latino][1 Link][LB]
Informacion Death Race: Inferno [2013][DVDRip][Latino][1 Link][LB]

TÍTULO ORIGINAL Death Race: Inferno (Death Race 3)
AÑO 2013
PAÍS Estados Unidos
DIRECTOR Roel Reiné
GUIÓN Tony Giglio
MÚSICA Trevor Morris
FOTOGRAFÍA Roel Reiné, Wayne Shields
REPARTO Luke Goss, Ving Rhames, Danny Trejo, Dougray Scott, Tanit Phoenix, Robin Shou, Sean Cameron Michael, Fred Koehler, Brandon Livanos
AUDIO Español Latino
GÉNERO Acción | Automovilismo. Secuela
CALIDAD DVDRip

General
Complete name : d3344attthrr4ac33.avi
Format : AVI
Format/Info : Audio Video Interleave
File size : 698 MiB
Duration : 1h 45mn
Overall bit rate : 927 Kbps
Writing application : VirtualDubMod 1.5.10.2 (build 2540/release)
Writing library : VirtualDub build 30586/release
Video
ID : 0
Format : MPEG-4 Visual
Format profile : Advanced Simple@L5
Format settings, BVOP : 2
Format settings, QPel : No
Format settings, GMC : No warppoints
Format settings, Matrix : Default (MPEG)
Codec ID : XVID
Codec ID/Hint : XviD
Duration : 1h 45mn
Bit rate : 790 Kbps
Width : 640 pixels
Height : 352 pixels
Display aspect ratio : 16:9
Frame rate : 23.976 fps
Color space : YUV
Chroma subsampling : 4:2:0
Bit depth : 8 bits
Scan type : Progressive
Compression mode : Lossy
Bits/(Pixel*Frame) : 0.146
Stream size : 594 MiB (85%)
Writing library : XviD 1.2.1 (UTC 2008-12-04)
Audio
ID : 1
Format : MPEG Audio
Format version : Version 1
Format profile : Layer 3
Mode : Joint stereo
Mode extension : MS Stereo
Codec ID : 55
Codec ID/Hint : MP3
Duration : 1h 45mn
Bit rate mode : Constant
Bit rate : 128 Kbps
Channel(s) : 2 channels
Sampling rate : 44.1 KHz
Compression mode : Lossy
Stream size : 96.3 MiB (14%)
Alignment : Split accross interleaves
Interleave, duration : 42 ms (1.00 video frame)
Interleave, preload duration : 500 ms
Writing library : LAME3.98.2

Capturas Death Race: Inferno [2013][DVDRip][Latino][1 Link][LB]

gSbtP Death Race: Inferno [2013][DVDRip][Latino][1 Link][LB]

Descargar Death Race: Inferno [2013][DVDRip][Latino][1 Link][LB]

Código:


http://u28901391.letitbit.net/download/27108.25b4bad2e468736b3f735a175788/d3344attthrr4ac33.avi.html

Valoración: 0 / 5.00 (0 votos)

Tagged with:  

Deja tu comentario

Premium WordPress Themes

Looking for something?

Use the form below to search the site:

Still not finding what you're looking for? Drop a comment on a post or contact us so we can take care of it!

Visit our friends!

A few highly recommended friends...